Тема: Нет звука
Показать сообщение отдельно
Старый 27.10.2018, 12:17   #1
alexandr-makukhin
Senior Member
 
Регистрация: 19.12.2012
Адрес: Россия, Москва
Сообщений: 125
По умолчанию Нет звука

Здравствуйте!

В Kodi перестал работать звук у старых видео.
В VLC звук работает.
И с вами снова я.avi
General
Complete name : /media/big-home/Видео/Фильмы/Отечественные/И с вами снова я.avi
Format : AVI
Format/Info : Audio Video Interleave
File size : 237 MiB
Duration : 28 min 26 s
Overall bit rate : 1 165 kb/s
Writing library : VirtualDub build 24259/release

Video
ID : 0
Format : MPEG-4 Visual
Format profile : Simple@L3
Format settings, BVOP : No
Format settings, QPel : No
Format settings, GMC : No warppoints
Format settings, Matrix : Default (H.263)
Codec ID : XVID
Codec ID/Hint : XviD
Duration : 28 min 26 s
Bit rate : 899 kb/s
Width : 768 pixels
Height : 576 pixels
Display aspect ratio : 4:3
Frame rate : 25.000 FPS
Color space : YUV
Chroma subsampling : 4:2:0
Bit depth : 8 bits
Scan type : Progressive
Compression mode : Lossy
Bits/(Pixel*Frame) : 0.081
Stream size : 183 MiB (77%)
Writing library : XviD 0.0.09 (UTC 2003-03-25)

Audio
ID : 1
Format : MPEG Audio
Format version : Version 1
Format profile : Layer 3
Format settings : Joint stereo
Codec ID : 55
Codec ID/Hint : MP3
Duration : 28 min 26 s
Bit rate mode : Constant
Bit rate : 256 kb/s
Channel(s) : 2 channels
Sampling rate : 44.1 kHz
Compression mode : Lossy
Delay relative to video : 1 ms
Stream size : 52.1 MiB (22%)
Alignment : Split accross interleaves
Interleave, duration : 40 ms (1.00 video frame)
Interleave, preload duration : 500 ms



Осень.avi
General
Complete name : /media/big-home/Видео/Фильмы/Отечественные/Осень.avi
Format : AVI
Format/Info : Audio Video Interleave
File size : 318 MiB
Duration : 39 min 36 s
Overall bit rate : 1 122 kb/s
Writing library : VirtualDub-MPEG2 build 23843/release

Video
ID : 0
Format : MPEG-4 Visual
Format profile : Simple@L3
Format settings, BVOP : No
Format settings, QPel : No
Format settings, GMC : No warppoints
Format settings, Matrix : Default (H.263)
Codec ID : XVID
Codec ID/Hint : XviD
Duration : 39 min 36 s
Bit rate : 1 000 kb/s
Width : 720 pixels
Height : 576 pixels
Display aspect ratio : 5:4
Frame rate : 25.000 FPS
Standard : PAL
Color space : YUV
Chroma subsampling : 4:2:0
Bit depth : 8 bits
Scan type : Progressive
Compression mode : Lossy
Bits/(Pixel*Frame) : 0.096
Stream size : 283 MiB (89%)
Writing library : XviD 1.2.0.dev47 (UTC 2006-11-01)

Audio
ID : 1
Format : MPEG Audio
Format version : Version 1
Format profile : Layer 3
Codec ID : 55
Codec ID/Hint : MP3
Duration : 39 min 36 s
Bit rate mode : Constant
Bit rate : 112 kb/s
Channel(s) : 1 channel
Sampling rate : 48.0 kHz
Compression mode : Lossy
Stream size : 31.7 MiB (10%)
Alignment : Split accross interleaves
Interleave, duration : 40 ms (1.00 video frame)
Interleave, preload duration : 500 ms

Миниатюры
Нажмите на изображение для увеличения
Название: screenshot_18-10-27_12-12-43.jpg
Просмотров: 20
Размер:	89.6 Кб
ID:	8030  
__________________
AMD Ryzen 3 2200G OEM / ASRock B450M Pro4-F / 2x 8Gb DDR4 2666MHz Samsung / KDE neon

Последний раз редактировалось alexandr-makukhin; 27.10.2018 в 12:27.
alexandr-makukhin вне форума   Ответить с цитированием