Форум XBMC \ Kodi Russia
   

Вернуться   Форум XBMC \ Kodi Russia > Помощь и поддержка > Поддержка платформы Windows

Ответ
 
Опции темы Опции просмотра
Старый 11.01.2010, 22:28   #21
sergvic
Junior Member
 
Регистрация: 11.01.2010
Сообщений: 18
По умолчанию

Такой вопросик. Из-за чуго такое может быть? Есть два фильма с расширением mkv.
При воспроизведении одного используется аппаратное ускорение видеокарты DXVA а на другом нет.

Последний раз редактировалось sergvic; 11.01.2010 в 22:51.
sergvic вне форума   Ответить с цитированием
 

Старый 12.01.2010, 11:24   #22
LordMerlin
Senior Member
 
Аватар для LordMerlin
 
Регистрация: 11.12.2009
Адрес: Russia
Сообщений: 2,029
Отправить сообщение для LordMerlin с помощью ICQ
По умолчанию

МедиаИнфо этого файла в студию. Ибо аппаратка зависит от многих факторов. И не забудьте конфиг компа.
LordMerlin вне форума   Ответить с цитированием
Старый 12.01.2010, 12:19   #23
sergvic
Junior Member
 
Регистрация: 11.01.2010
Сообщений: 18
По умолчанию

Цитата:
Сообщение от LordMerlin Посмотреть сообщение
МедиаИнфо этого файла в студию. Ибо аппаратка зависит от многих факторов. И не забудьте конфиг компа.
Как правильно вытащить данные через медиаинфо, что бы их предоставить.
Конфиг компа
плата ABIT NF8-v2 (nForce) AGP
проц AMD Opteron 2600
Mem 1 Gb
HDD 500 Gb WD
Video Gigabyte HD 4650 1 Gb AGP
sergvic вне форума   Ответить с цитированием
Старый 12.01.2010, 12:21   #24
LordMerlin
Senior Member
 
Аватар для LordMerlin
 
Регистрация: 11.12.2009
Адрес: Russia
Сообщений: 2,029
Отправить сообщение для LordMerlin с помощью ICQ
По умолчанию

Есть такая программа так и называется MediaInfo.
По видеочасти вроде все ОК
LordMerlin вне форума   Ответить с цитированием
Старый 12.01.2010, 20:46   #25
sergvic
Junior Member
 
Регистрация: 11.01.2010
Сообщений: 18
По умолчанию

[QUOTE=LordMerlin;416]Есть такая программа так и называется MediaInfo.
По видеочасти вроде все ОК[/QUOДанное о фалах
На этом файле DXVA работает
Код:
General
Complete name                    : \\HTC\Video\эквилибриум.mkv
Format                           : Matroska
File size                        : 4.37 GiB
Duration                         : 1h 47mn
Overall bit rate                 : 5 837 Kbps
Encoded date                     : UTC 2007-01-30 06:49:09
Writing application              : mkvmerge v1.8.0 ('Wise Up') built on Nov 10 2006 19:41:15
Writing library                  : libebml v0.7.7 + libmatroska v0.8.0
Cover                            : Yes

Video
ID                               : 1
Format                           : AVC
Format/Info                      : Advanced Video Codec
Format profile                   : High@L5.1
Format settings, CABAC           : Yes
Format settings, ReFrames        : 8 frames
Muxing mode                      : Container profile=Unknown@5.1
Codec ID                         : V_MPEG4/ISO/AVC
Duration                         : 1h 46mn
Bit rate                         : 5 273 Kbps
Nominal bit rate                 : 5 395 Kbps
Width                            : 1 280 pixels
Height                           : 544 pixels
Display aspect ratio             : 2.35:1
Frame rate                       : 23.976 fps
Resolution                       : 8 bits
Colorimetry                      : 4:2:0
Scan type                        : Progressive
Bits/(Pixel*Frame)               : 0.316
Stream size                      : 3.94 GiB (90%)
Writing library                  : x264 core 54 svn-620M
Encoding settings                : cabac=1 / ref=5 / deblock=1:-2:-3 / analyse=0x3:0x133 / me=umh / subme=7 / brdo=1 / mixed_ref=1 / me_range=16 / chroma_me=1 / trellis=1 / 8x8dct=1 / cqm=2 / deadzone=21,11 / chroma_qp_offset=0 / threads=2 / nr=0 / decimate=1 / mbaff=0 / bframes=3 / b_pyramid=1 / b_adapt=1 / b_bias=0 / direct=1 / wpredb=1 / bime=1 / keyint=250 / keyint_min=25 / scenecut=40(pre) / rc=2pass / bitrate=5395 / ratetol=1.0 / rceq='blurCplx^(1-qComp)' / qcomp=0.60 / qpmin=10 / qpmax=51 / qpstep=4 / cplxblur=20.0 / qblur=0.5 / ip_ratio=1.40 / pb_ratio=1.30
Language                         : English

Audio
ID                               : 2
Format                           : AC-3
Format/Info                      : Audio Coding 3
Codec ID                         : A_AC3
Duration                         : 1h 47mn
Bit rate mode                    : Constant
Bit rate                         : 448 Kbps
Channel(s)                       : 6 channels
Channel positions                : Front: L C R, Surround: L R, LFE
Sampling rate                    : 48.0 KHz
Stream size                      : 343 MiB (8%)
Title                            : Dolby AC3 5.1
Language                         : Russian
Здесь все ок.
sergvic вне форума   Ответить с цитированием
Старый 12.01.2010, 20:48   #26
sergvic
Junior Member
 
Регистрация: 11.01.2010
Сообщений: 18
По умолчанию

На этом файле DXVA не работает
Код:
General
Complete name                    : \\HTC\Video\Пираты карибского моря - На краю света(HDTV, 1080p).mkv
Format                           : Matroska
File size                        : 12.7 GiB
Duration                         : 2h 48mn
Overall bit rate                 : 10.8 Mbps
Movie name                       : Pirates of the Caribbean: At World's End 2007 - 1080p (ESiR)
Encoded date                     : UTC 2007-11-22 07:19:05
Writing application              : mkvmerge v2.1.0 ('Another Place To Fall') built on Aug 19 2007 13:40:07
Writing library                  : libebml v0.7.7 + libmatroska v0.8.1
Cover                            : Yes / Yes / Yes

Video
ID                               : 1
Format                           : AVC
Format/Info                      : Advanced Video Codec
Format profile                   : High@L5.1
Format settings, CABAC           : Yes
Format settings, ReFrames        : 8 frames
Muxing mode                      : Container profile=Unknown@5.1
Codec ID                         : V_MPEG4/ISO/AVC
Duration                         : 2h 48mn
Bit rate                         : 8 719 Kbps
Nominal bit rate                 : 8 928 Kbps
Width                            : 1 920 pixels
Height                           : 800 pixels
Display aspect ratio             : 2.40:1
Frame rate                       : 23.976 fps
Resolution                       : 8 bits
Colorimetry                      : 4:2:0
Scan type                        : Progressive
Bits/(Pixel*Frame)               : 0.237
Stream size                      : 10.3 GiB (80%)
Title                            : x264 @ 8928kbps
Writing library                  : x264 core 56 svn-680
Encoding settings                : cabac=1 / ref=5 / deblock=1:-4:-4 / analyse=0x3:0x133 / me=umh / subme=7 / brdo=1 / mixed_ref=1 / me_range=16 / chroma_me=1 / trellis=1 / 8x8dct=1 / cqm=2 / deadzone=21,11 / chroma_qp_offset=0 / threads=3 / nr=0 / decimate=1 / mbaff=0 / bframes=3 / b_pyramid=1 / b_adapt=1 / b_bias=0 / direct=3 / wpredb=1 / bime=1 / keyint=250 / keyint_min=25 / scenecut=40(pre) / rc=2pass / bitrate=8928 / ratetol=1.0 / rceq='blurCplx^(1-qComp)' / qcomp=0.60 / qpmin=10 / qpmax=51 / qpstep=4 / cplxblur=20.0 / qblur=0.5 / ip_ratio=1.40 / pb_ratio=1.30 / aq=1:0.5:17.0
Language                         : English

Audio #1
ID                               : 2
Format                           : AC-3
Format/Info                      : Audio Coding 3
Codec ID                         : A_AC3
Duration                         : 2h 48mn
Bit rate mode                    : Constant
Bit rate                         : 384 Kbps
Channel(s)                       : 6 channels
Channel positions                : Front: L C R, Surround: L R, LFE
Sampling rate                    : 48.0 KHz
Stream size                      : 463 MiB (4%)
Language                         : Russian

Audio #2
ID                               : 3
Format                           : DTS
Format/Info                      : Digital Theater Systems
Codec ID                         : A_DTS
Duration                         : 2h 48mn
Bit rate mode                    : Constant
Bit rate                         : 1 510 Kbps
Channel(s)                       : 6 channels
Channel positions                : Front: L C R, Surround: L R, LFE
Sampling rate                    : 48.0 KHz
Resolution                       : 24 bits
Stream size                      : 1.78 GiB (14%)
Title                            : DTS 5.1 @ 1536kbps
Language                         : English

Text #1
ID                               : 4
Format                           : ASS
Codec ID                         : S_TEXT/ASS
Codec ID/Info                    : Advanced Sub Station Alpha
Language                         : English

Text #2
ID                               : 5
Format                           : ASS
Codec ID                         : S_TEXT/ASS
Codec ID/Info                    : Advanced Sub Station Alpha
Language                         : Finnish

Text #3
ID                               : 6
Format                           : ASS
Codec ID                         : S_TEXT/ASS
Codec ID/Info                    : Advanced Sub Station Alpha
Language                         : Norwegian

Text #4
ID                               : 7
Format                           : ASS
Codec ID                         : S_TEXT/ASS
Codec ID/Info                    : Advanced Sub Station Alpha
Language                         : Portuguese

Text #5
ID                               : 8
Format                           : ASS
Codec ID                         : S_TEXT/ASS
Codec ID/Info                    : Advanced Sub Station Alpha
Language                         : Spanish

Text #6
ID                               : 9
Format                           : ASS
Codec ID                         : S_TEXT/ASS
Codec ID/Info                    : Advanced Sub Station Alpha
Language                         : Czech

Text #7
ID                               : 10
Format                           : ASS
Codec ID                         : S_TEXT/ASS
Codec ID/Info                    : Advanced Sub Station Alpha
Language                         : Dutch

Text #8
ID                               : 11
Format                           : ASS
Codec ID                         : S_TEXT/ASS
Codec ID/Info                    : Advanced Sub Station Alpha
Language                         : Hungarian

Text #9
ID                               : 12
Format                           : ASS
Codec ID                         : S_TEXT/ASS
Codec ID/Info                    : Advanced Sub Station Alpha
Language                         : Serbian

Text #10
ID                               : 13
Format                           : ASS
Codec ID                         : S_TEXT/ASS
Codec ID/Info                    : Advanced Sub Station Alpha
Language                         : Slovenian

Text #11
ID                               : 14
Format                           : ASS
Codec ID                         : S_TEXT/ASS
Codec ID/Info                    : Advanced Sub Station Alpha
Language                         : Swedish
В чем проблема ?
Такое ощещение что формат не соответствует DXVA.
А это можно как-то проверять ?
sergvic вне форума   Ответить с цитированием
Старый 13.01.2010, 09:21   #27
LordMerlin
Senior Member
 
Аватар для LordMerlin
 
Регистрация: 11.12.2009
Адрес: Russia
Сообщений: 2,029
Отправить сообщение для LordMerlin с помощью ICQ
По умолчанию

В общем проблема в профиле. Тоесть как видно оба файла зажаты с профилем 5,1 а у Атишек с этим профилем и рефом больше 4 возникают иногда проблемы. Первый идет потому как хотя профиль и 5,1 но разрешение 720р, а вот у второго ФуллХД разрешение и ту уже наступает косяк так как рефов 8. В общем надо пробовать менять декодер h.264? какойто точно должен завестись. Возможно что придется регистрировать CyberLink 264 Decoder.
LordMerlin вне форума   Ответить с цитированием
Старый 13.01.2010, 11:45   #28
sergvic
Junior Member
 
Регистрация: 11.01.2010
Сообщений: 18
По умолчанию

Цитата:
Сообщение от LordMerlin Посмотреть сообщение
В общем проблема в профиле. Тоесть как видно оба файла зажаты с профилем 5,1 а у Атишек с этим профилем и рефом больше 4 возникают иногда проблемы. Первый идет потому как хотя профиль и 5,1 но разрешение 720р, а вот у второго ФуллХД разрешение и ту уже наступает косяк так как рефов 8. В общем надо пробовать менять декодер h.264? какойто точно должен завестись. Возможно что придется регистрировать CyberLink 264 Decoder.
Т.е. или ставить программный декодер Cyberlink, но я боюсь что сама машинка не потянет
Или смотреть желательно 720p

А как поставить Cyberlink и зарегать его ?
sergvic вне форума   Ответить с цитированием
Старый 13.01.2010, 12:00   #29
LordMerlin
Senior Member
 
Аватар для LordMerlin
 
Регистрация: 11.12.2009
Адрес: Russia
Сообщений: 2,029
Отправить сообщение для LordMerlin с помощью ICQ
По умолчанию

Цитата:
Т.е. или ставить программный декодер Cyberlink, но я боюсь что сама машинка не потянет
Или смотреть желательно 720p

А как поставить Cyberlink и зарегать его ?
Cyberlink тоже поддерживает аппаратку. Может заведется. Я по атишкам точно не помню уже что я делал чтобы работало на профиле 5,1 и рафам выше 4 при Фулл разрешении когда у меня была Атишка.
Смотреть можно все, тут просто совпадение характеристик.
Про ускорение надо читать тут, а про то как добавить в конфиг надо тут.
LordMerlin вне форума   Ответить с цитированием
Старый 13.01.2010, 18:10   #30
Liggain
Member
 
Регистрация: 11.12.2009
Сообщений: 35
По умолчанию

Кто бы мне показал настройки в которых играет внешний декодер....
Liggain вне форума   Ответить с цитированием
Ответ

Метки
dsplayer, imon
 


Здесь присутствуют: 1 (пользователей: 0 , гостей: 1)
 
Опции темы
Опции просмотра

Ваши права в разделе
Вы не можете создавать новые темы
Вы не можете отвечать в темах
Вы не можете прикреплять вложения
Вы не можете редактировать свои сообщения

BB коды Вкл.
Смайлы Вкл.
[IMG] код Вкл.
HTML код Выкл.



Текущее время: 15:18. Часовой пояс GMT +3.


Powered by vBulletin® Version 3.8.9
Copyright ©2000 - 2017, Jelsoft Enterprises Ltd.