Форум XBMC и Kodi. Помощь, поддержка, обсуждение, плагины.
   

Вернуться   Форум XBMC и Kodi. Помощь, поддержка, обсуждение, плагины. > Помощь и поддержка > Поддержка платформы Windows

Ответ
 
Опции темы Опции просмотра
Старый 25.04.2010, 14:27   #1
kot1974
Junior Member
 
Регистрация: 18.04.2010
Сообщений: 2
По умолчанию Не воспроизводит видео

Проблема в следующем, Atlon 2000+, 512 ОЗУ, Gfoce4 MX440 64ОЗУ WinXP SP3 XBMC 9.11категорически отказывается воспроизводить видео, т.е. звук есть, а вместо картинки белый экран. Комп подключен к ТВ через S-video.
Может кто знает как это победить?


Вот лог
14:18:33 T:1948 M:352641024 DEBUG: ------ Window Init (MyVideo.xml) ------
14:18:33 T:1948 M:352641024 INFO: Loading skin file: MyVideo.xml
14:18:34 T:1948 M:354025472 DEBUG: Load MyVideo.xml: 91.00ms
14:18:34 T:1948 M:353726464 DEBUG: Alloc resources: 96.96ms (91.13 ms skin load)
14:18:34 T:1948 M:353714176 DEBUG: CGUIMediaWindow::GetDirectory ()
14:18:34 T:1948 M:353714176 DEBUG: ParentPath = []
14:18:34 T:232 M:351952896 DEBUG: thread start, auto delete: 0
14:18:34 T:232 M:352538624 DEBUG: Thread 232 terminating
14:18:41 T:1948 M:357527552 DEBUG: CGUIMediaWindow::GetDirectory (D:\)
14:18:41 T:1948 M:357527552 DEBUG: ParentPath = []
14:18:41 T:240 M:357773312 DEBUG: thread start, auto delete: 0
14:18:41 T:172 M:357957632 DEBUG: CThumbExtractor:oWork - trying to extract thumb from video file D:\Smeshariki.(140.seriya.iz.208).Chemodan.2009.Xv iD.DVDRip.avi
14:18:41 T:172 M:357912576 DEBUG: Win32DllLoader::Load(special://xbmc/system/players/dvdplayer/avutil-50.dll)
14:18:42 T:240 M:357904384 DEBUG: Thread 240 terminating
14:18:42 T:172 M:357871616 DEBUG: Win32DllLoader::Load(special://xbmc/system/players/dvdplayer/avcodec-52.dll)
14:18:43 T:172 M:353939456 DEBUG: LoadLibraryA('libfaad.dll')
14:18:43 T:172 M:353939456 DEBUG: Win32DllLoader::Load(special://xbmc/system/players/dvdplayer/libfaad.dll)
14:18:43 T:172 M:353939456 DEBUG: LoadLibrary('libfaad.dll') returning: 07021750
14:18:43 T:172 M:353939456 DEBUG: LoadLibraryA('avutil-50.dll')
14:18:43 T:172 M:353939456 DEBUG: LoadLibrary('avutil-50.dll') returning: 066AACA8
14:18:44 T:172 M:354185216 DEBUG: Win32DllLoader::Load(special://xbmc/system/players/dvdplayer/avformat-52.dll)
14:18:44 T:172 M:354136064 DEBUG: LoadLibraryA('avcodec-52.dll')
14:18:44 T:172 M:354136064 DEBUG: LoadLibrary('avcodec-52.dll') returning: 0702B388
14:18:44 T:172 M:354136064 DEBUG: LoadLibraryA('avutil-50.dll')
14:18:44 T:172 M:354136064 DEBUG: LoadLibrary('avutil-50.dll') returning: 066AACA8
14:18:44 T:172 M:353665024 DEBUG: CDVDDemuxFFmpeg::Open - probing detected format [avi]
14:18:46 T:172 M:352518144 DEBUG: CDVDDemuxFFmpeg::Open - av_find_stream_info starting
14:18:46 T:172 M:351969280 DEBUG: CDVDDemuxFFmpeg::Open - av_find_stream_info finished
14:18:46 T:172 M:351969280 INFO: ffmpeg[AC]: Input #0, avi, from 'D:\Smeshariki.(140.seriya.iz.208).Chemodan.2009.X viD.DVDRip.avi':
14:18:46 T:172 M:351969280 INFO: ffmpeg[AC]: Duration: 00:06:30.00, start: 0.000000, bitrate: 2666 kb/s
14:18:46 T:172 M:351969280 INFO: ffmpeg[AC]: Stream #0.0: Video: mpeg4, yuv420p, 720x400 [PAR 1:1 DAR 9:5], 25 tbr, 25 tbn, 25 tbc
14:18:46 T:172 M:351969280 INFO: ffmpeg[AC]: Stream #0.1: Audio: mp3, 48000 Hz, 2 channels, s16, 160 kb/s
14:18:46 T:172 M:351948800 DEBUG: FactoryCodec - Video: - Opening
14:18:46 T:172 M:351948800 DEBUG: Win32DllLoader::Load(special://xbmc/system/players/dvdplayer/swscale-0.6.1.dll)
14:18:46 T:172 M:351911936 DEBUG: LoadLibraryA('avutil-50.dll')
14:18:46 T:172 M:351911936 DEBUG: LoadLibrary('avutil-50.dll') returning: 066AACA8
14:18:46 T:172 M:351903744 NOTICE: CDVDVideoCodecFFmpeg::Open() Using codec: MPEG-4 part 2
14:18:46 T:172 M:351903744 DEBUG: FactoryCodec - Video: ff-mpeg4 - Opened
14:18:46 T:172 M:351903744 DEBUG: CDVDFileInfo::ExtractThumb - seeking to pos 130000ms (total: 390000ms) in D:\Smeshariki.(140.seriya.iz.208).Chemodan.2009.Xv iD.DVDRip.avi
14:18:46 T:172 M:351903744 DEBUG: CDVDDemuxFFmpeg::SeekTime - unknown position after seek
14:18:46 T:172 M:352800768 DEBUG: CDVDFileInfo::ExtractThumb - measured 5029 ms to extract thumb from file <D:\Smeshariki.(140.seriya.iz.208).Chemodan.2009.X viD.DVDRip.avi>
14:18:47 T:168 M:352763904 DEBUG: CThumbExtractor:oWork - trying to extract thumb from video file D:\Smeshariki.Bonusy.Dobrozhelatelnost.(4.seriya.i z.54).Muha-ne.chervyak.2010.XviD.DVDRip.avi
14:18:47 T:176 M:352100352 DEBUG: CImageLoader:oWork - took 55 ms to load special://masterprofile/Thumbnails/Video/9/auto-98db6fe7.tbn
14:18:47 T:168 M:352034816 DEBUG: CDVDDemuxFFmpeg::Open - probing detected format [avi]
14:18:47 T:168 M:352514048 DEBUG: CDVDDemuxFFmpeg::Open - av_find_stream_info starting
14:18:47 T:168 M:352268288 DEBUG: ffmpeg[A8]: [NULL] Invalid and inefficient vfw-avi packed B frames detected
14:18:47 T:168 M:352509952 DEBUG: CDVDDemuxFFmpeg::Open - av_find_stream_info finished
14:18:47 T:168 M:352509952 INFO: ffmpeg[A8]: Input #0, avi, from 'D:\Smeshariki.Bonusy.Dobrozhelatelnost.(4.seriya. iz.54).Muha-ne.chervyak.2010.XviD.DVDRip.avi':
14:18:47 T:168 M:352509952 INFO: ffmpeg[A8]: Duration: 00:01:35.00, start: 0.000000, bitrate: 1987 kb/s
14:18:47 T:168 M:352509952 INFO: ffmpeg[A8]: Stream #0.0: Video: mpeg4, yuv420p, 720x400 [PAR 1:1 DAR 9:5], 25 tbr, 25 tbn, 25 tbc
14:18:47 T:168 M:352505856 INFO: ffmpeg[A8]: Stream #0.1: Audio: ac3, 48000 Hz, stereo, s16, 224 kb/s
14:18:47 T:168 M:352505856 DEBUG: FactoryCodec - Video: - Opening
14:18:47 T:168 M:352505856 NOTICE: CDVDVideoCodecFFmpeg::Open() Using codec: MPEG-4 part 2
14:18:47 T:168 M:352505856 DEBUG: FactoryCodec - Video: ff-mpeg4 - Opened
14:18:47 T:168 M:352505856 DEBUG: CDVDFileInfo::ExtractThumb - seeking to pos 31666ms (total: 95000ms) in D:\Smeshariki.Bonusy.Dobrozhelatelnost.(4.seriya.i z.54).Muha-ne.chervyak.2010.XviD.DVDRip.avi
14:18:47 T:168 M:352505856 DEBUG: CDVDDemuxFFmpeg::SeekTime - unknown position after seek
14:18:47 T:168 M:352460800 DEBUG: ffmpeg[A8]: [NULL] Invalid and inefficient vfw-avi packed B frames detected
14:18:47 T:168 M:351965184 DEBUG: ffmpeg[A8]: [mpeg4] Invalid and inefficient vfw-avi packed B frames detected
14:18:47 T:168 M:352567296 DEBUG: CDVDFileInfo::ExtractThumb - measured 360 ms to extract thumb from file <D:\Smeshariki.Bonusy.Dobrozhelatelnost.(4.seriya. iz.54).Muha-ne.chervyak.2010.XviD.DVDRip.avi>
14:18:47 T:1948 M:352489472 DEBUG: CPlayerCoreFactory::GetPlayers(D:\Smeshariki.(140. seriya.iz.208).Chemodan.2009.XviD.DVDRip.avi)
14:18:47 T:1948 M:352489472 DEBUG: CPlayerSelectionRule::GetPlayers: considering rule: system rules
14:18:47 T:1948 M:352489472 DEBUG: CPlayerSelectionRule::GetPlayers: matches rule: system rules
14:18:47 T:1948 M:352489472 DEBUG: CPlayerSelectionRule::GetPlayers: considering rule: rtv
14:18:47 T:1948 M:352489472 DEBUG: CPlayerSelectionRule::GetPlayers: considering rule: hdhomerun/myth/rtmp/mms/udp
14:18:47 T:1948 M:352489472 DEBUG: CPlayerSelectionRule::GetPlayers: considering rule: lastfm/shout
14:18:47 T:1948 M:352489472 DEBUG: CPlayerSelectionRule::GetPlayers: considering rule: rtsp
14:18:47 T:1948 M:352489472 DEBUG: CPlayerSelectionRule::GetPlayers: considering rule: streams
14:18:47 T:1948 M:352489472 DEBUG: CPlayerSelectionRule::GetPlayers: considering rule: dvd
14:18:47 T:1948 M:352489472 DEBUG: CPlayerSelectionRule::GetPlayers: considering rule: dvdfile
14:18:47 T:1948 M:352489472 DEBUG: CPlayerSelectionRule::GetPlayers: considering rule: dvdimage
14:18:47 T:1948 M:352489472 DEBUG: CPlayerSelectionRule::GetPlayers: considering rule: sdp/asf
14:18:47 T:1948 M:352489472 DEBUG: CPlayerSelectionRule::GetPlayers: considering rule: nsv
14:18:47 T:1948 M:352489472 DEBUG: CPlayerCoreFactory::GetPlayers: matched 0 rules with players
14:18:47 T:1948 M:352460800 DEBUG: CPlayerCoreFactory::GetPlayers: adding videodefaultplayer (1)
14:18:47 T:1948 M:352460800 DEBUG: CPlayerCoreFactory::GetPlayers: for video=1, audio=0
14:18:47 T:1948 M:352460800 DEBUG: CPlayerCoreFactory::GetPlayers: for video=1, audio=1
14:18:47 T:1948 M:352460800 DEBUG: CPlayerCoreFactory::GetPlayers: adding player: DVDPlayer (1)
14:18:47 T:1948 M:352460800 DEBUG: CPlayerCoreFactory::GetPlayers: added 1 players
14:18:47 T:1948 M:351166464 NOTICE: DVDPlayer: Opening: D:\Smeshariki.(140.seriya.iz.208).Chemodan.2009.Xv iD.DVDRip.avi
14:18:47 T:1948 M:351158272 WARNING: CDVDMessageQueue(player)::Put MSGQ_NOT_INITIALIZED
14:18:47 T:244 M:351145984 DEBUG: thread start, auto delete: 1
14:18:47 T:248 M:351141888 DEBUG: thread start, auto delete: 0
14:18:47 T:248 M:351133696 NOTICE: Creating InputStream
14:18:47 T:248 M:351133696 INFO: CDVDFactorySubtitle::GetSubtitles, searching subtitles
14:18:47 T:248 M:351133696 DEBUG: CUtil::CacheSubtitles: START
14:18:47 T:248 M:351129600 DEBUG: CUtil::CacheSubtitles: Checking for common subirs...
14:18:47 T:248 M:351129600 DEBUG: CUtil::CacheSubtitles: Done (time: 8 ms)
14:18:47 T:248 M:351129600 DEBUG: CUtil::CacheSubtitles: Searching for subtitles...
14:18:47 T:248 M:351129600 DEBUG: CUtil::CacheSubtitles: Done (time: 5 ms)
14:18:47 T:248 M:351129600 DEBUG: CUtil::CacheSubtitles: END (total time: 13 ms)
14:18:47 T:248 M:351129600 INFO: CDVDFactorySubtitle::GetSubtitles, searching subtitles done
14:18:47 T:248 M:351121408 NOTICE: Creating Demuxer
14:18:47 T:248 M:351023104 DEBUG: CDVDDemuxFFmpeg::Open - probing detected format [avi]
14:18:47 T:248 M:349995008 DEBUG: CDVDDemuxFFmpeg::Open - av_find_stream_info starting
14:18:47 T:248 M:349970432 DEBUG: CDVDDemuxFFmpeg::Open - av_find_stream_info finished
14:18:47 T:248 M:349970432 INFO: ffmpeg[F8]: Input #0, avi, from 'D:\Smeshariki.(140.seriya.iz.208).Chemodan.2009.X viD.DVDRip.avi':
14:18:47 T:248 M:349970432 INFO: ffmpeg[F8]: Duration: 00:06:30.00, start: 0.000000, bitrate: 2666 kb/s
14:18:47 T:248 M:349941760 INFO: ffmpeg[F8]: Stream #0.0: Video: mpeg4, yuv420p, 720x400 [PAR 1:1 DAR 9:5], 25 tbr, 25 tbn, 25 tbc
14:18:47 T:248 M:349941760 INFO: ffmpeg[F8]: Stream #0.1: Audio: mp3, 48000 Hz, 2 channels, s16, 160 kb/s
14:18:47 T:248 M:349929472 NOTICE: Opening video stream: 0 source: 256
14:18:47 T:248 M:349925376 NOTICE: Creating video codec with codec id: 13
14:18:47 T:248 M:349925376 DEBUG: FactoryCodec - Video: - Opening
14:18:47 T:248 M:349925376 NOTICE: CDVDVideoCodecFFmpeg::Open() Using codec: MPEG-4 part 2
14:18:47 T:248 M:349925376 DEBUG: FactoryCodec - Video: ff-mpeg4 - Opened
14:18:47 T:248 M:349925376 NOTICE: Creating video thread
14:18:47 T:248 M:349917184 NOTICE: Opening audio stream: 1 source: 256
14:18:47 T:248 M:349917184 NOTICE: Finding audio codec for: 86017
14:18:47 T:248 M:349904896 DEBUG: FactoryCodec - Audio: passthrough - Opening
14:18:47 T:248 M:349904896 DEBUG: FactoryCodec - Audio: passthrough - Failed
14:18:47 T:248 M:349900800 DEBUG: FactoryCodec - Audio: libmad - Opening
14:18:47 T:248 M:349900800 DEBUG: Win32DllLoader::Load(special://xbmc/system/players/dvdplayer/libmad.dll)
14:18:47 T:172 M:349851648 DEBUG: CThumbExtractor:oWork - trying to extract thumb from video file D:\Smeshariki.Bonusy.Dobrozhelatelnost.(3.seriya.i z.54).Chugunok.ne.igraet.2010.XviD.DVDRip.avi
14:18:47 T:252 M:349835264 DEBUG: thread start, auto delete: 0
14:18:47 T:252 M:349827072 NOTICE: running thread: video_thread
14:18:47 T:248 M:349822976 DEBUG: LoadLibraryA('MSVCR71.dll')
14:18:47 T:248 M:349822976 DEBUG: LoadLibrary('MSVCR71.dll') returning: 01704748
14:18:47 T:248 M:349720576 DEBUG: FactoryCodec - Audio: libmad - Opened
14:18:47 T:248 M:349720576 NOTICE: Creating audio thread
14:18:47 T:256 M:349712384 DEBUG: thread start, auto delete: 0
14:18:47 T:256 M:349708288 NOTICE: running thread: CDVDPlayerAudio::Process()
14:18:47 T:248 M:349708288 DEBUG: CEdl::ReadEditDecisionLists - checking for any edit decision lists (EDL) on local drive or remote share for: D:\Smeshariki.(140.seriya.iz.208).Chemodan.2009.Xv iD.DVDRip.avi
14:18:47 T:172 M:349638656 DEBUG: CDVDDemuxFFmpeg::Open - probing detected format [avi]
14:18:48 T:248 M:349614080 INFO: Loading skin file: DialogProgress.xml
14:18:48 T:1948 M:349609984 DEBUG: CGUIAudioManager:eInitialize
14:18:48 T:1948 M:349605888 DEBUG: CApplication::OnPlayBackStarted - Playback has started
14:18:48 T:172 M:349409280 DEBUG: CDVDDemuxFFmpeg::Open - av_find_stream_info starting
14:18:48 T:172 M:349163520 DEBUG: ffmpeg[AC]: [NULL] Invalid and inefficient vfw-avi packed B frames detected
14:18:48 T:172 M:349388800 DEBUG: CDVDDemuxFFmpeg::Open - av_find_stream_info finished
14:18:48 T:172 M:349388800 INFO: ffmpeg[AC]: Input #0, avi, from 'D:\Smeshariki.Bonusy.Dobrozhelatelnost.(3.seriya. iz.54).Chugunok.ne.igraet.2010.XviD.DVDRip.avi':
14:18:48 T:172 M:349388800 INFO: ffmpeg[AC]: Duration: 00:01:35.00, start: 0.000000, bitrate: 1984 kb/s
14:18:48 T:172 M:349388800 INFO: ffmpeg[AC]: Stream #0.0: Video: mpeg4, yuv420p, 720x400 [PAR 1:1 DAR 9:5], 25 tbr, 25 tbn, 25 tbc
14:18:48 T:172 M:349388800 INFO: ffmpeg[AC]: Stream #0.1: Audio: ac3, 48000 Hz, stereo, s16, 224 kb/s
14:18:48 T:172 M:349388800 DEBUG: FactoryCodec - Video: - Opening
14:18:48 T:172 M:349388800 NOTICE: CDVDVideoCodecFFmpeg::Open() Using codec: MPEG-4 part 2
14:18:48 T:172 M:349388800 DEBUG: FactoryCodec - Video: ff-mpeg4 - Opened
14:18:48 T:172 M:349384704 DEBUG: CDVDFileInfo::ExtractThumb - seeking to pos 31666ms (total: 95000ms) in D:\Smeshariki.Bonusy.Dobrozhelatelnost.(3.seriya.i z.54).Chugunok.ne.igraet.2010.XviD.DVDRip.avi
14:18:48 T:172 M:349384704 DEBUG: CDVDDemuxFFmpeg::SeekTime - unknown position after seek
14:18:48 T:248 M:345481216 DEBUG: Load DialogProgress.xml: 299.74ms
14:18:48 T:252 M:345477120 DEBUG: CDVDPlayerVideo - CDVDMsg::GENERAL_SYNCHRONIZE
14:18:48 T:252 M:344510464 NOTICE: fps: 25.000000, pwidth: 720, pheight: 400, dwidth: 720, dheight: 400
14:18:48 T:252 M:344510464 DEBUG: CDVDPlayerVideo::OutputPicture - change configuration. 720x400. framerate: 25.00
14:18:48 T:252 M:344510464 NOTICE: Display resolution DESKTOP : 640x480 @ 60.00 - Full Screen (12)
14:18:48 T:256 M:344510464 DEBUG: CDVDPlayerAudio - CDVDMsg::GENERAL_RESYNC(24000.000000, 1)
14:18:48 T:256 M:344502272 NOTICE: Creating audio device with codec id: 86017, channels: 2, sample rate: 48000, no pass-through
14:18:48 T:256 M:344494080 INFO: AudioRendererFactory: not a explicit device, trying to autodetect.
14:18:48 T:252 M:344457216 DEBUG: CDVDPlayerVideo - CDVDMsg::GENERAL_DELAY(16000.000000)
14:18:48 T:1948 M:344375296 DEBUG: CGUIInfoManager::SetCurrentMovie(D:\Smeshariki.(14 0.seriya.iz.208).Chemodan.2009.XviD.DVDRip.avi)
14:18:48 T:172 M:344281088 DEBUG: ffmpeg[AC]: [NULL] Invalid and inefficient vfw-avi packed B frames detected
14:18:48 T:244 M:343756800 DEBUG: Thread 244 terminating (autodelete)
14:18:48 T:172 M:343748608 DEBUG: ffmpeg[AC]: [mpeg4] Invalid and inefficient vfw-avi packed B frames detected
14:18:48 T:252 M:343261184 DEBUG: CDVDPlayerVideo - CDVDMsg::GENERAL_RESYNC(40000.000000, 0)
14:18:48 T:1948 M:341229568 DEBUG: CVideoDatabase::GetMovieId (D:\Smeshariki.(140.seriya.iz.208).Chemodan.2009.X viD.DVDRip.avi), query = select idMovie from movie where idFile=5
14:18:48 T:1948 M:341225472 DEBUG: CVideoDatabase::GetEpisodeId (D:\Smeshariki.(140.seriya.iz.208).Chemodan.2009.X viD.DVDRip.avi), query = select idEpisode from episode where idFile=5
14:18:48 T:1948 M:343740416 DEBUG: CVideoDatabase::GetMusicVideoId (D:\Smeshariki.(140.seriya.iz.208).Chemodan.2009.X viD.DVDRip.avi), query = select idMVideo from musicvideo where idFile=5
14:18:48 T:1948 M:343728128 DEBUG: Activating window ID: 12005
14:18:48 T:1948 M:343728128 DEBUG: Checking if window ID 12005 is locked.

Последний раз редактировалось kot1974; 25.04.2010 в 15:34.
kot1974 вне форума   Ответить с цитированием
   
Старый 25.04.2010, 21:05   #2
bigbax
Senior Member
 
Аватар для bigbax
 
Регистрация: 12.12.2009
Адрес: Моск.обл.
Сообщений: 4,501
Отправить сообщение для bigbax с помощью ICQ
По умолчанию

Gfoce4 MX440 - это из серии GeForce AGP видеокарт ?

"Может кто знает как это победить?"- думаю новую видеокарту покупать надо и к ней компьютер соответствующий.
__________________
Kodi 18
bigbax вне форума   Ответить с цитированием
Старый 27.04.2010, 19:58   #3
kot1974
Junior Member
 
Регистрация: 18.04.2010
Сообщений: 2
По умолчанию

Пбедил. Поставил версию 9,04 и все заработало
kot1974 вне форума   Ответить с цитированием
Старый 14.05.2010, 21:54   #4
mescalero
Junior Member
 
Аватар для mescalero
 
Регистрация: 30.03.2010
Адрес: Isreal?
Сообщений: 23
По умолчанию

Приветствую.
У меня та-же проблема.Звук есть,изображения нет."Железо":
Win 7 x64 Ultimate
Q 9650
ASUS P5K Premium, OCZ 1066 2X2GB
nVidia GeForce 9800 GTX+
Intel X25-V SSD 40GB + Seagate 2x1TB
MPC на этой-же машине воспроизводит всё нормально.
Версия XBMC - 9.11
__________________
Intel i7 930,ASUS P6X58 Premium, Mushkin 1333 3X2GB, nVidia GeForce 470,WD 4TB+4TB+2TB,SSD Kingston 64 GB ,Win 7 x64 Ultimate
mescalero вне форума   Ответить с цитированием
Старый 22.05.2010, 10:01   #5
mescalero
Junior Member
 
Аватар для mescalero
 
Регистрация: 30.03.2010
Адрес: Isreal?
Сообщений: 23
По умолчанию

Проблема решена переустановкой DirectX и XBMC.
__________________
Intel i7 930,ASUS P6X58 Premium, Mushkin 1333 3X2GB, nVidia GeForce 470,WD 4TB+4TB+2TB,SSD Kingston 64 GB ,Win 7 x64 Ultimate
mescalero вне форума   Ответить с цитированием
Ответ
 


Здесь присутствуют: 1 (пользователей: 0 , гостей: 1)
 
Опции темы
Опции просмотра

Ваши права в разделе
Вы не можете создавать новые темы
Вы не можете отвечать в темах
Вы не можете прикреплять вложения
Вы не можете редактировать свои сообщения

BB коды Вкл.
Смайлы Вкл.
[IMG] код Вкл.
HTML код Выкл.



Текущее время: 11:21. Часовой пояс GMT +3.


Powered by vBulletin® Version 3.8.9
Copyright ©2000 - 2020, Jelsoft Enterprises Ltd.