Форум XBMC и Kodi. Помощь, поддержка, обсуждение, плагины.
   

Вернуться   Форум XBMC и Kodi. Помощь, поддержка, обсуждение, плагины. > Анонсы, Информация и Общие Темы > Общие темы для обсуждения

Ответ
 
Опции темы Опции просмотра
Старый 05.07.2011, 05:04   #1
serzh82saratov
Senior Member
 
Аватар для serzh82saratov
 
Регистрация: 13.01.2011
Адрес: Саратов
Сообщений: 624
Question Артефакты с DXVA при перемотке

При перемотке появляются квадраты при включенном DXVA ,причём не во всех фильмах,может например в одном блю-рэе будет нормально,а в какой нибудь авишке квадраты при каждом шаге перемотки.Вообщем непонятно и безсистемно.
Windows 7 & Nvidia GTX 460.

Последний раз редактировалось serzh82saratov; 28.09.2012 в 03:57.
serzh82saratov вне форума   Ответить с цитированием
   
Старый 05.07.2011, 11:20   #2
maniack
Member
 
Регистрация: 07.12.2010
Сообщений: 67
По умолчанию

проблемы в кодеке, точнее в кодировании.
забей.
__________________
AMD Athlon II X2 240/AMD760g/2Gb/Ubuntu-11.04

maniack вне форума   Ответить с цитированием
Старый 05.07.2011, 16:01   #3
maxworks
Junior Member
 
Регистрация: 25.03.2010
Сообщений: 24
По умолчанию

Не согласен.
У меня они тоже относительно недавно появились. Точно такие же. Пару, тройку месяцев назад. Я тогда экспериментировал с видеокартами и драйверами под них. Возможно от этого.
Артефакты появились даже в тех фильмах, где раньше их небыло.
У меня они появились после установки Geforce 8600GT вместо Radeon 2600XT, Но когда поменял видеокарту обратно не пропали.
сейчас стоит GTX460, артифакты тоже есть, но изредка, раньше были везде.

Буду очень благодарен если кто-то подскажет как это лечить.
переустанавливать Windows планирую не скоро. Почти уверен что это вылечит проблемму, но хотелось бы не так радикально.

/Athlon II x3 455@Phenom II x4 B55/MSI790FX-GD70/Gigabyte GTX460 768mb/WD100EARS + WD200EARS/LG 32LD550/Dharma 10.1/

Последний раз редактировалось maxworks; 05.07.2011 в 16:13.
maxworks вне форума   Ответить с цитированием
Старый 06.07.2011, 13:14   #4
serzh82saratov
Senior Member
 
Аватар для serzh82saratov
 
Регистрация: 13.01.2011
Адрес: Саратов
Сообщений: 624
По умолчанию

Я ставил на чистую систему,артефакты были сразу,значит что то с NVidia если на Радеоне у вас проблем не было изначально.

Последний раз редактировалось serzh82saratov; 06.07.2011 в 13:24.
serzh82saratov вне форума   Ответить с цитированием
Старый 06.07.2011, 18:59   #5
LordMerlin
Senior Member
 
Аватар для LordMerlin
 
Регистрация: 11.12.2009
Адрес: Russia
Сообщений: 2,184
По умолчанию

Проблема в кодировании файла и декодерах бокса.
Медиаинфо файла приведите.
__________________
Dune HD TV-102/Pioneer VSX-520-K/Samsung ES6727

ВИКИ Настройка DSPlayer: http://xbmc.ru/wiki/index.php?title=Настройка_DSPlayer
DSPlayer поддержка ускорения GPU: http://xbmc.ru/forum/showthread.php?t=12
XBMC+SVP: http://habrahabr.ru/post/181598/
Крипто-робот, бонус за регистрацию, оплата за результат: https://apitrade.pro/bonus_xbmcru.htm
LordMerlin вне форума   Ответить с цитированием
Старый 06.07.2011, 19:07   #6
serzh82saratov
Senior Member
 
Аватар для serzh82saratov
 
Регистрация: 13.01.2011
Адрес: Саратов
Сообщений: 624
По умолчанию

Цитата:
Сообщение от LordMerlin Посмотреть сообщение
Проблема в кодировании файла и декодерах бокса.
Медиаинфо файла приведите.

General
Unique ID : 196202291274092911443784521210823608727 (0x939B2FD19D5BBB2EA84DAFE94B528997)
Complete name : E:\ТОРЕНТЫ\Snowboard.mkv
Format : Matroska
File size : 2.19 GiB
Duration : 52mn 8s
Overall bit rate : 6 003 Kbps
Encoded date : UTC 2010-10-19 17:51:37
Writing application : mkvmerge v4.1.1 ('Bouncin' Back') gebaut am Jul 3 2010 22:54:08
Writing library : libebml v1.0.0 + libmatroska v1.0.0

Video
ID : 1
Format : AVC
Format/Info : Advanced Video Codec
Format profile : High@L4.1
Format settings, CABAC : Yes
Format settings, ReFrames : 5 frames
Codec ID : V_MPEG4/ISO/AVC
Duration : 52mn 8s
Bit rate : 4 494 Kbps
Width : 1 280 pixels
Height : 720 pixels
Display aspect ratio : 16:9
Frame rate : 23.976 fps
Color space : YUV
Chroma subsampling : 4:2:0
Bit depth : 8 bits
Scan type : Progressive
Bits/(Pixel*Frame) : 0.203
Stream size : 1.59 GiB (73%)
Writing library : x264 core 107 r1745 4785e8e
Encoding settings : cabac=1 / ref=5 / deblock=1:0:0 / analyse=0x3:0x113 / me=umh / subme=7 / psy=1 / psy_rd=1.00:0.00 / mixed_ref=1 / me_range=16 / chroma_me=1 / trellis=1 / 8x8dct=1 / cqm=0 / deadzone=21,11 / fast_pskip=0 / chroma_qp_offset=-2 / threads=6 / sliced_threads=0 / nr=0 / decimate=1 / interlaced=0 / constrained_intra=0 / bframes=3 / b_pyramid=2 / b_adapt=1 / b_bias=0 / direct=1 / weightb=1 / open_gop=0 / weightp=2 / keyint=250 / keyint_min=23 / scenecut=40 / intra_refresh=0 / rc_lookahead=40 / rc=2pass / mbtree=1 / bitrate=4494 / ratetol=1.0 / qcomp=0.60 / qpmin=10 / qpmax=51 / qpstep=4 / cplxblur=20.0 / qblur=0.5 / ip_ratio=1.40 / aq=1:1.00

Audio
ID : 2
Format : DTS
Format/Info : Digital Theater Systems
Codec ID : A_DTS
Duration : 52mn 8s
Bit rate mode : Constant
Bit rate : 1 510 Kbps
Channel(s) : 6 channels
Channel positions : Front: L C R, Side: L R, LFE
Sampling rate : 48.0 KHz
Bit depth : 16 bits
Compression mode : Lossy
Stream size : 563 MiB (25%)
Language : English

Menu
00:00:00.000 : en:INTRO
00:00:56.932 : en:LUCAS DEBARI
00:02:41.411 : en:BLAIR HABENICHT
00:04:07.914 : en:WOLFGANG NYVELT
00:08:40.145 : en:CALE ZIMA
00:11:01.452 : en:ANNIE BOULANGER
00:12:05.016 : en:MARIE FRANCE ROY
00:12:50.311 : en:TAKA NAKAI
00:13:22.218 : en:TADASHI FUSE
00:13:47.452 : en:ROMAIN DEMARCHI
00:14:48.262 : en:JP SOLBERG
00:15:46.070 : en:POWDER HIGHWAY (Nicolas & Jake)
00:18:41.537 : enCP
00:20:06.205 : en:BJORN LEINES
00:20:48.205 : en:BLAIR HABENICHT
00:22:10.371 : en:JULES REYMOND
00:23:49.386 : en:GIGI RÜF
00:25:46.003 : en:SYLVAIN BOURBOUSSON
00:27:49.167 : en:BODE MERRILL
00:31:04.738 : en:TERJE HAAKONSEN
00:31:51.493 : en:JP SOLBERG
00:32:06.800 : en:FREDI KALBERMATTEN
00:33:35.764 : en:NICOLAS MÜLLER
00:34:46.042 : en:JAKE BLAUVELT
00:38:22.926 : enAN BRISSE
00:42:02.353 : en:ENDCREDITS

serzh82saratov вне форума   Ответить с цитированием
Старый 06.07.2011, 22:25   #7
LordMerlin
Senior Member
 
Аватар для LordMerlin
 
Регистрация: 11.12.2009
Адрес: Russia
Сообщений: 2,184
По умолчанию

Странно если чесно, хотя не исключаю чо в чем то этом проблема:
1. Декодеры бокса (слабоватые по сравнению с тем же кибером)
2.
Цитата:
mkvmerge v4.1.1
Делает сжатые заголовки по умолчанию, отсюда тупняки сплиттера бокса и соотв артефакты.
3.
Цитата:
ReFrames : 5 frames
Хоть по докам для такого разрешения можно до 9, но в коммерческих БД релизах там не больше 4.
__________________
Dune HD TV-102/Pioneer VSX-520-K/Samsung ES6727

ВИКИ Настройка DSPlayer: http://xbmc.ru/wiki/index.php?title=Настройка_DSPlayer
DSPlayer поддержка ускорения GPU: http://xbmc.ru/forum/showthread.php?t=12
XBMC+SVP: http://habrahabr.ru/post/181598/
Крипто-робот, бонус за регистрацию, оплата за результат: https://apitrade.pro/bonus_xbmcru.htm
LordMerlin вне форума   Ответить с цитированием
Старый 20.11.2011, 18:48   #8
serzh82saratov
Senior Member
 
Аватар для serzh82saratov
 
Регистрация: 13.01.2011
Адрес: Саратов
Сообщений: 624
По умолчанию

В NightBuild от 17112011 ,всё нормально.
__________________
Windows 7-64 bit, NVidia GTX 570, ХВМС Kodi, Пульт IRLink + AutoHotkey.
serzh82saratov вне форума   Ответить с цитированием
Старый 21.11.2011, 15:02   #9
maxworks
Junior Member
 
Регистрация: 25.03.2010
Сообщений: 24
По умолчанию

Цитата:
Сообщение от serzh82saratov Посмотреть сообщение
В NightBuild от 17112011 ,всё нормально.
Дайте ссылку пожалуйста.
__________________
/Athlon II x3 455@Phenom II x4 B55/MSI790FX-GD70/Gigabyte GTX460 768mb/WD100EARS + WD200EARS/LG 32LD550/Dharma 10.1 Win 7 Pro/
maxworks вне форума   Ответить с цитированием
Ответ
 


Здесь присутствуют: 1 (пользователей: 0 , гостей: 1)
 
Опции темы
Опции просмотра

Ваши права в разделе
Вы не можете создавать новые темы
Вы не можете отвечать в темах
Вы не можете прикреплять вложения
Вы не можете редактировать свои сообщения

BB коды Вкл.
Смайлы Вкл.
[IMG] код Вкл.
HTML код Выкл.


Похожие темы
Тема Автор Раздел Ответов Последнее сообщение
Как включить DxVA на XP SP3?? Solo83 Поддержка платформы Windows 3 07.07.2011 17:14


Текущее время: 15:17. Часовой пояс GMT +3.


Powered by vBulletin® Version 3.8.9
Copyright ©2000 - 2022, Jelsoft Enterprises Ltd.